Resultados 1 al 1 de 1

Tema: Walking with Dinosaurs [2013] 3D H-SBS 1080p [Ing-Lat]

  1. #1

    Fecha de ingreso
    marzo 2017
    Mensajes
    131
    Agradecido:
    92 veces

    Varios Servers Walking with Dinosaurs [2013] 3D H-SBS 1080p [Ing-Lat]


    Ml7qxdB - Walking with Dinosaurs [2013] 3D H-SBS 1080p [Ing-Lat]

    TITULO ORIGINAL: Walking with Dinosaurs (Walking with Dinosaurs 3D)
    ANO: 2013
    DURACION: 87 min.
    PAIS: USA
    DIRECTOR: Barry Cook, Neil Nightingale
    GUION: John Collee, Theodore Thomas
    REPARTO: Animation
    PRODUCTORA: Coproduccion Reino Unido-EEUU-Austrlia; Animal Logic / BBC Earth / BBC Worldwide
    GENERO: Animacion. Documental | Prehistoria. Dinosaurios. 3-D
    Código:
    http://www.imdb.com/title/tt1762399/
    Sinopsis: "CAMINANDO ENTRE DINOSAURIOS" nos traslada hasta una Alaska prehistorica, donde conoceremos a Patch, un encantador y concienzudo dinosaurio, y a su familia. Patch es el pequeno de la camada, y nadie espera que vaya a llegar muy lejos. Pero Patch tiene un espiritu fuerte y un gran corazon; lo que le falta de fuerza fisica lo compensa con una gran tenacidad. Seguiremos a Patch y a su familia en su larga migracion anual para encontrar comida. Es un emocionante viaje, sembrado de peligros, en el que tambien encontraremos amigos y muchas aventuras.
    Trailer
    https://www.youtube.com/watch?v=23bU...ature=youtu.be


    Código:
    General
    Format                                   : Matroska
    Format version                           : Version 2
    File size                                : 9.67 GiB
    Duration                                 : 1h 27mn
    Overall bit rate                         : 15.8 Mbps
    Encoded date                             : UTC 2014-03-23 16:59:13
    Writing application                      : mkvmerge v5.7.0 ('The Whirlwind') built on Jul  8 2012 20:08:51
    Writing library                          : libebml v1.2.3 + libmatroska v1.3.0
    Video
    ID                                       : 1
    Format                                   : AVC
    Format/Info                              : Advanced Video Codec
    Format profile                           : [email protected]
    Format settings, CABAC                   : Yes
    Format settings, ReFrames                : 4 frames
    Muxing mode                              : Header stripping
    Codec ID                                 : V_MPEG4/ISO/AVC
    Duration                                 : 1h 27mn
    Bit rate                                 : 13.2 Mbps
    Width                                    : 1 920 pixels
    Height                                   : 1 080 pixels
    Display aspect ratio                     : 16:9
    Frame rate mode                          : Constant
    Frame rate                               : 23.976 fps
    Color space                              : YUV
    Chroma subsampling                       : 4:2:0
    Bit depth                                : 8 bits
    Scan type                                : Progressive
    Bits/(Pixel*Frame)                       : 0.266
    Stream size                              : 7.88 GiB (82%)
    Writing library                          : x264 core 140 r2377 1ca7bb9
    Language                                 : English
    Default                                  : Yes
    Forced                                   : No
    Audio #1
    ID                                       : 2
    Format                                   : AC-3
    Format/Info                              : Audio Coding 3
    Mode extension                           : CM (complete main)
    Format settings, Endianness              : Big
    Muxing mode                              : Header stripping
    Codec ID                                 : A_AC3
    Duration                                 : 1h 27mn
    Bit rate mode                            : Constant
    Bit rate                                 : 448 Kbps
    Channel(s)                               : 6 channels
    Channel positions                        : Front: L C R, Side: L R, LFE
    Sampling rate                            : 48.0 KHz
    Bit depth                                : 16 bits
    Compression mode                         : Lossy
    Delay relative to video                  : 8s 0ms
    Stream size                              : 281 MiB (3%)
    Title                                    : AC3 5.1
    Language                                 : Spanish
    Default                                  : Yes
    Forced                                   : No
    Audio #2
    ID                                       : 3
    Format                                   : AC-3
    Format/Info                              : Audio Coding 3
    Mode extension                           : CM (complete main)
    Format settings, Endianness              : Big
    Muxing mode                              : Header stripping
    Codec ID                                 : A_AC3
    Duration                                 : 1h 27mn
    Bit rate mode                            : Constant
    Bit rate                                 : 640 Kbps
    Channel(s)                               : 6 channels
    Channel positions                        : Front: L C R, Side: L R, LFE
    Sampling rate                            : 48.0 KHz
    Bit depth                                : 16 bits
    Compression mode                         : Lossy
    Stream size                              : 401 MiB (4%)
    Title                                    : AC3 5.1
    Language                                 : English
    Default                                  : No
    Forced                                   : No
    Audio #3
    ID                                       : 4
    Format                                   : DTS
    Format/Info                              : Digital Theater Systems
    Mode                                     : 16
    Format settings, Endianness              : Big
    Muxing mode                              : Header stripping
    Codec ID                                 : A_DTS
    Duration                                 : 1h 27mn
    Bit rate mode                            : Constant
    Bit rate                                 : 1 509 Kbps
    Channel(s)                               : 6 channels
    Channel positions                        : Front: L C R, Side: L R, LFE
    Sampling rate                            : 48.0 KHz
    Bit depth                                : 24 bits
    Compression mode                         : Lossy
    Delay relative to video                  : 11ms
    Stream size                              : 945 MiB (10%)
    Title                                    : DTS 5.1
    Language                                 : English
    Default                                  : No
    Forced                                   : No
    Text
    ID                                       : 5
    Format                                   : VobSub
    Muxing mode                              : zlib
    Codec ID                                 : S_VOBSUB
    Codec ID/Info                            : The same subtitle format used on DVDs
    Language                                 : Spanish
    Default                                  : No
    Forced                                   : No
    eNe7piy - Walking with Dinosaurs [2013] 3D H-SBS 1080p [Ing-Lat]
    9kgtQPO - Walking with Dinosaurs [2013] 3D H-SBS 1080p [Ing-Lat]
    iCLSioV - Walking with Dinosaurs [2013] 3D H-SBS 1080p [Ing-Lat]
    b29vzkh - Walking with Dinosaurs [2013] 3D H-SBS 1080p [Ing-Lat]

    7Vt0k - Walking with Dinosaurs [2013] 3D H-SBS 1080p [Ing-Lat]

    Contenido oculto. Ha de estar registrado, y pulsar el botón "Gracias" para visualizar sus enlaces de descarga.
    Si trás registrarse todavía no visualiza el botón de "gracias", pulse la tecla F5, para refrescar la página.


  2. El siguiente Usuario agradeció a fernandito este mensaje:

    jmm00044 (20 abril 2017)

Temas similares

  1. Respuestas: 0
    Último mensaje: 2 noviembre 2014, 16:24
  2. Walking with Dinosaurs 3D (2013) - HSBS BRRip 1080p 3D - Dual Latino-Ingles [Mega y Mas]
    Por merhamet en el foro BDRip/DVDFull Otras Nacionalidades
    Respuestas: 1
    Último mensaje: 21 marzo 2014, 15:11
  3. Walking with Dinosaurs 3D (2013) - BRRip 720p Dual Latino-Ingles [800 MB] [FireDrive y Mas]
    Por merhamet en el foro BDRip/DVDFull Otras Nacionalidades
    Respuestas: 0
    Último mensaje: 14 marzo 2014, 21:07
  4. Age of Dinosaurs [2013] [DVDRip] Castellano - Subtitulada
    Por nemesi en el foro DVDRip Otras Nacionalidades
    Respuestas: 0
    Último mensaje: 18 octubre 2013, 00:51
  5. Go Home Dinosaurs [2013][PC][Ingles][UL-CLZ]
    Por nueve93 en el foro Juegos PC
    Respuestas: 0
    Último mensaje: 17 marzo 2013, 17:05

Etiquetas para este tema

Permisos de publicación

  • No puedes crear nuevos temas
  • No puedes responder temas
  • No puedes subir archivos adjuntos
  • No puedes editar tus mensajes
  •